x86_64-linux-component-no-error-resilience v13_dev0-1340-gb5e6bd0ca

Architecturex86
Variantx86_64
CPUgeneric
OSlinux
Ownerdiego
Compilergcc 6.3.0 (Debian 6.3.0-18) 20170516
Configuration--prefix=/home/libav/fate/workdir/oracle/x86_64-linux-component-no-error-resilience/install --samples=/home/libav/samples/fate-suite --enable-gpl --disable-error-resilience
Commenterror-resilience disabled
Revisionv13_dev0-1340-gb5e6bd0ca
Date2017-10-11 19:48:40
Status1978 / 1981
Warnings63
Logscompile configure test
3 failed testsStatusLast good rev
diffstderrcbs-mpeg2-hhi_burst_422_short1n / a
--- /home/libav/fate/workdir/oracle/x86_64-linux-component-no-error-resilience/src/tests/ref/fate/cbs-mpeg2-hhi_burst_422_short	2017-09-10 01:47:38.460734387 +0000
+++ tests/data/fate/cbs-mpeg2-hhi_burst_422_short	2017-10-11 19:48:10.058871857 +0000
@@ -1 +0,0 @@
-e0c2fdd9baeba0c5ba5839a8cd7a72d3
avconv version v13_dev0-1340-gb5e6bd0ca, Copyright (c) 2000-2017 the Libav developers
  built on Oct 11 2017 19:47:54 with gcc 6.3.0 (Debian 6.3.0-18) 20170516
[mpegvideo @ 0x55d5dcd5f240] max_analyze_duration 5000000 reached
[mpegvideo @ 0x55d5dcd5f240] Estimating duration from bitrate, this may be inaccurate
Input #0, mpegvideo, from '/home/libav/samples/fate-suite/mpeg2/hhi_burst_422_short.bits':
  Duration: N/A, bitrate: N/A
    Stream #0:0: Video: mpeg1video
      none
      25 fps, 25 tbn
Output #0, mpeg2video, to 'md5:':
Output file #0 does not contain any stream
diffstderrcbs-mpeg2-sony-ct31n / a
--- /home/libav/fate/workdir/oracle/x86_64-linux-component-no-error-resilience/src/tests/ref/fate/cbs-mpeg2-sony-ct3	2017-09-10 01:47:38.460734387 +0000
+++ tests/data/fate/cbs-mpeg2-sony-ct3	2017-10-11 19:48:10.066871862 +0000
@@ -1 +0,0 @@
-b1e15a09cfffbad801810af0928736ab
avconv version v13_dev0-1340-gb5e6bd0ca, Copyright (c) 2000-2017 the Libav developers
  built on Oct 11 2017 19:47:54 with gcc 6.3.0 (Debian 6.3.0-18) 20170516
[mpegvideo @ 0x564d801a3240] max_analyze_duration 5000000 reached
[mpegvideo @ 0x564d801a3240] Estimating duration from bitrate, this may be inaccurate
Input #0, mpegvideo, from '/home/libav/samples/fate-suite/mpeg2/sony-ct3.bs':
  Duration: N/A, bitrate: N/A
    Stream #0:0: Video: mpeg1video
      none
      25 fps, 25 tbn
Output #0, mpeg2video, to 'md5:':
Output file #0 does not contain any stream
diffstderrcbs-mpeg2-tcela-61n / a
--- /home/libav/fate/workdir/oracle/x86_64-linux-component-no-error-resilience/src/tests/ref/fate/cbs-mpeg2-tcela-6	2017-09-10 01:47:38.460734387 +0000
+++ tests/data/fate/cbs-mpeg2-tcela-6	2017-10-11 19:48:10.082871874 +0000
@@ -1 +0,0 @@
-771b6756a63793e05b74e645794908a2
avconv version v13_dev0-1340-gb5e6bd0ca, Copyright (c) 2000-2017 the Libav developers
  built on Oct 11 2017 19:47:54 with gcc 6.3.0 (Debian 6.3.0-18) 20170516
[mpegvideo @ 0x55e528a62240] max_analyze_duration 5000000 reached
[mpegvideo @ 0x55e528a62240] Estimating duration from bitrate, this may be inaccurate
Input #0, mpegvideo, from '/home/libav/samples/fate-suite/mpeg2/tcela-6.bits':
  Duration: N/A, bitrate: N/A
    Stream #0:0: Video: mpeg1video
      none
      25 fps, 25 tbn
Output #0, mpeg2video, to 'md5:':
Output file #0 does not contain any stream